#TITLE:What's up, people?!;
#SUBTITLE:- Death Note 2nd Opening;
#ARTIST:MAXIMUM THE HORMONE;
#TITLETRANSLIT:;
#SUBTITLETRANSLIT:;
#ARTISTTRANSLIT:Maximum the Hormone;
#CREDIT:True Ancestor;
#BANNER:whatsupbanner.png;
#BACKGROUND:whatsup1.png;
#LYRICSPATH:;
#CDTITLE:trueancestor.png;
#MUSIC:Whats Up People.MP3;
#OFFSET:-0.220;
#SAMPLESTART:20.960;
#SAMPLELENGTH:22.400;
#SELECTABLE:YES;
#BPMS:0.000=161.350,49.500=160.800,81.500=161.450,113.750=20.169,115.750=40.338,119.750=80.675,135.500=322.700,175.000=161.350;
#STOPS:17.000=0.350
;
#BGCHANGES:0.000=Whats up people.avi=1.000=0=0=1,
188.000=whatsup1.png=1.000=1=0=1,
99999=-nosongbg-=1.000=0=0=0 // don't automatically add -songbackground-
;
// cache tags:
#FIRSTBEAT:1.000;
#LASTBEAT:189.500;
#SONGFILENAME:songs/Otaku's Dream 3rd Anime Mix/[TrueAncestor] Whats Up People - Death Note 2nd OP/Death Note 2nd OP - Whats Up People.sm;
#HASMUSIC:1;
#HASBANNER:1;
#MUSICLENGTH:80.016;
// end cache tags

//---------------dance-single - ----------------
#NOTES:
     dance-single:
     :
     Challenge:
     11:
     1.000,1.000,1.000,0.512,1.000,545.000,97.000,41.000,0.000,0.000:








0000
0000
0000
0000
1001
0000
1001
0000
1001
0001
0100
0000
1010
0000
0100
1000
,
0000
0100
1000
0000
0011
0000
0100
0001
0000
0001
0100
0000
0110
0000
1000
0010
,
0000
0100
0010
0000
1001
0000
1001
0000
1001
0001
0100
0000
1010
0000
0100
0010
,
0000
1000
0001
0000
0110
0000
0001
1000
0000
0100
0010
0000
0101
0000
0001
1000
,
0000
0100
0010
0000
1001
0000
0001
0010
0000
1100
0000
0001
0100
0000
1000
0001
,
0000
0110
0000
0010
0100
0000
1000
0001
0000
0101
0000
0001
0010
0000
0010
0100
,
0000
0101
0000
0100
1000
0000
0100
1000
0000
0101
0000
0010
0001
0000
0001
0100
,
0000
1100
0000
0100
0010
0000
1000
0010
0000
0011
0000
0100
0001
0000
1000
0100
,
0000
0110
0000
0010
0100
0000
0001
0100
0000
1001
0000
0100
1000
0000
0100
0001
,
0000
1100
0000
0010
0001
0000
0001
0010
0000
0110
0000
0100
1000
0000
0010
0001
,
0000
0101
0000
0001
0100
0000
0010
0100
0000
1001
0000
0100
1000
0000
0010
1000
,
0000
0110
0000
1000
0001
0000
0001
0100
0000
1010
0000
0100
0001
0000
0001
1000
,
0000
0101
0000
0010
0100
0000
0010
0100
1000
0000
0010
0100
0000
0001
0010
0100
,
1000
0000
0010
0001
0000
0100
1000
0010
0100
0000
1000
0001
0000
0100
0010
0000
,
0101
0000
1100
0000
0011
0000
1000
0100
0001
0000
0010
0100
0000
1000
0001
0100
,
0010
0000
1000
0100
0000
0010
0001
0100
0010
0000
1000
0010
0000
0001
0100
0000
,
1100
0000
0110
0000
0010
0001
1000
0100
1000
0001
0100
0010
0000
0100
1000
0001
,
0100
0010
0100
0001
0000
1000
0100
1000
0010
0100
0001
0010
0000
0100
0010
0000
,
1100
0000
0011
0000
0010
0100
0010
0100
1000
0010
0001
0100
0000
1000
0100
1000
,
0010
0001
0100
0001
0000
0010
0100
1000
0001
1000
0001
0010
0000
0100
0001
0000
,
2002
0000
0000
0000
3003
0000
1000
0001
0000
1100
0000
0010
0100
0000
1000
0001
,
0000
0110
0000
0010
1000
0000
1000
0010
0000
1001
0000
0001
0100
0000
1000
0001
,
0000
0101
0000
0001
0010
0000
0010
0001
0000
1100
0000
0100
1000
0000
0100
1000
,
0000
0011
0000
0100
0001
0000
0010
1000
0000
0110
0000
1000
0001
0000
0001
0100
,
0000
1010
0000
0100
0010
0000
1000
0010
0000
0101
0000
0001
0100
0000
1000
0100
,
0000
0110
0000
0010
0100
0000
0001
0100
0000
1010
0000
1000
0010
0000
0100
0001
,
0000
0110
0000
1000
0010
0000
0100
0001
0000
1001
0000
0100
0001
0000
0010
0100
,
0000
1100
0000
0001
0100
0000
1000
0100
0000
0101
0000
1000
0001
0000
0001
0010
,
0000
0000
0000
0000
1100
0000
0000
0000
0000
0000
0000
0000
0001
0000
0000
0000
0110
0000
0000
0000
0000
0000
0000
0000
0000
0000
0000
0000
1000
1000
1000
2000
0010
0010
0010
3020
0100
0100
0100
0230
0001
0001
0001
0302
1000
1000
1000
2003
0001
0001
0001
3002
0100
0100
0100
0203
1000
1000
1000
1300
1000
0000
1000
0000
,
1000
2000
0100
0100
0100
3200
0010
0010
0010
0320
1000
1000
1000
2030
0001
0001
0001
3002
0100
0100
0100
0203
0010
0010
0010
0320
0100
0100
0100
0130
0100
0000
,
0100
0100
0200
1000
1000
1000
2300
0001
0001
0001
3002
0010
0010
0010
0023
0100
,
0100
0000
0100
0000
0230
0000
1000
0000
1000
0000
1000
0000
2300
0000
0001
0000
0001
0000
0001
0000
3002
0000
0100
0000
0100
0000
0100
0000
0103
0000
0010
1000
,
0100
1000
0100
1000
0010
1000
0010
1000
0001
1000
0100
1000
0100
1000
0010
1000
0010
1000
0100
1000
0100
1000
0010
1000
0001
1000
0010
1000
0010
1000
0100
1000
,
0100
1000
0100
1000
0010
1000
0010
1000
0100
1000
0010
1000
0001
1000
0100
1000
0010
1000
0010
1000
0001
1000
0100
0000
0011
0000
0110
0000
1100
0000
0000
0000
,
0101
1000
0010
0100
1001
0010
0100
1000
,
0101
0010
1000
0010
1010
0001
0100
0010
,
1100
0001
0100
1000
0101
1000
0001
0100
,
0110
1000
0100
0001
0101
1000
0010
1000
,
1001
0100
0001
0100
1100
0010
1000
0100
,
1001
0100
0010
0001
0110
1000
0010
0001
,
1010
0100
0001
0100
0011
0100
1000
0001
,
1100
0100
1000
0001
1100
0001
0010
0001
,
0110
1000
0010
1000
0101
1000
0001
0100
,
1010
0101
1001
1001
1100
0101
2002
0000
,
0000
0000
0000
3003
0000
0000
2002
0000
0000
0000
0000
0000
0000
0000
0000
0000
0000
0000
0000
0000
0000
0000
0000
0000
0000
0000
0000
0000
0000
0000
0000
0000
0000
0000
0000
0000
3003
0000
0000
0000
0000
0000
1100
0000
0000
0000
0110
0000
,
0000
0000
0000
0000
0000
0000
0000
0000
0011
0000
0000
0000
0000
0000
0000
0000
0000
0000
0000
0000
0000
0000
0000
0000
0101
0000
0000
0000
0000
0000
0000
0000
0000
0000
0000
0000
0000
0000
0000
0000
1100
0000
0000
0000
0000
0000
0000
0000
0000
0000
0000
0000
0000
0000
0000
0000
0011
0000
0000
0000
0000
0000
0000
0000
0000
0000
0000
0000
0000
0000
0000
0000
1100
0000
0000
0000
0000
0000
0000
0000
0000
0000
0000
0000
0000
0000
0000
0000
0000
0000
0220
0000
0000
0000
0000
0000
0000
0000
0000
0000
0000
0000
0000
0000
0000
0000
0000
0000
0000
0000
0000
0000
0000
0000
0000
0000
0000
0000
0000
0000
0000
0000
0000
0000
0000
0000
0000
0000
0000
0000
0000
0000
0000
0000
0000
0000
0000
0000
0000
0000
0000
0000
0000
0000
0330
0000
0000
0000
0000
0000
0000
0000
0000
0000
0000
0000
0000
0000
0000
0000
0000
0000
0000
0000
0000
0000
0000
0000
0000
0000
0000
0000
0000
0000
0000
0000
0000
0000
0000
0000
2200
0000
0000
0000
0000
0000
0000
0000
0000
0000
0000
0000
,
0000
0000
0000
3300
0000
0000
0000
0000
0202
0000
0000
0000
0000
0000
0000
0000
0000
0000
0000
0000
0000
0000
0000
0000
0000
0000
0000
0000
0303
0000
0000
0000
0022
0000
0000
0000
0000
0000
0000
0000
0000
0000
0000
0000
0000
0000
0000
0000
0000
0000
0000
0000
0033
0000
2200
0000
0000
0000
0000
0000
0000
0000
0000
0000
0000
0000
0000
0000
0000
3300
0000
0000
0000
0000
0000
0000
0000
0000
0220
0000
0000
0000
0000
0000
0000
0000
0000
0000
0000
0000
0000
0000
0000
0000
0000
0000
0000
0000
0000
0000
0000
0000
0000
0000
0000
0000
0000
0000
0000
0000
0000
0000
0000
0000
0000
0000
0000
0000
0000
0000
0330
0000
0000
0000
0000
0000
0000
0000
0000
0000
0000
0000
0000
0000
0000
0000
0000
0000
0000
0000
0000
0000
0000
0000
0000
0000
0000
0000
0000
0000
0000
0000
0000
0000
0000
0000
0000
0000
0000
0000
0000
0000
0000
0000
0000
0000
0000
0000
0000
0000
0000
0000
0000
0000
0000
0000
0000
0000
0000
0000
2002
0000
0000
0000
0000
0000
0000
0000
0000
0000
0000
0000
,
0000
0000
0000
0000
0000
3003
0000
0000
0000
0000
0000
0000
0000
0000
0000
0000
;

//---------------dance-single - ----------------
#NOTES:
     dance-single:
     :
     Hard:
     10:
     0.975,1.000,0.650,0.275,1.000,472.000,52.000,22.000,0.000,0.000:






0000
0000
0000
0000
0110
0000
0110
0000
0110
0000
0001
0000
0010
0000
0100
0010
,
0000
0010
0100
0000
0001
0000
1000
0001
0000
0001
1000
0000
1000
0000
1000
0100
,
0000
0100
1000
0000
0110
0000
0110
0000
0110
0000
0001
0000
0001
0000
0001
1000
,
0000
0100
0010
0000
1000
0000
1000
0100
0000
0100
0010
0000
0001
0000
0001
1000
,
0000
1000
0010
0000
0110
0000
0010
0001
0000
0001
0000
0001
0001
0000
1000
0001
,
0000
0001
0000
0010
0010
0000
0010
0100
0000
0100
0000
0100
0100
0000
0010
0100
,
0000
1000
0000
1000
1000
0000
1000
0001
0000
0010
0000
0001
0001
0000
0100
0010
,
0000
0010
0000
0010
0010
0000
1000
0001
0000
0001
0000
0001
0001
0000
0001
0010
,
0000
0010
0000
0010
0010
0000
1000
0010
0000
0010
0000
0010
0010
0000
0001
0100
,
0000
0100
0000
0100
0100
0000
1000
0001
0000
0001
0000
0001
0001
0000
0010
0100
,
0000
0100
0000
0100
0100
0000
1000
0010
0000
0100
0000
0001
0001
0000
0001
1000
,
0000
0010
0000
0100
0100
0000
1000
0100
0000
0010
0000
0001
0001
0000
0001
0010
,
0000
0100
0000
1000
1000
0000
1000
0000
1000
0000
1000
0001
0000
0010
0100
0000
,
0100
0000
0100
0010
0000
0010
1000
0000
1000
0000
1000
0010
0000
0010
0001
0000
,
0001
0000
1100
0000
1100
0000
0100
0000
0001
0000
0001
0100
0000
0100
0010
0000
,
1000
0000
0010
1000
0000
1000
0001
0000
0001
0000
1000
0100
0000
0100
1000
0000
,
0001
0000
0110
0000
1010
1000
0100
1000
0100
1000
0100
0001
0000
0100
0001
0100
,
0001
0100
0001
1000
0000
1000
0001
1000
0001
1000
0001
0010
0000
0100
0010
0000
,
0010
0000
0010
0000
1000
0100
0010
0001
0010
0100
1000
0100
0000
1000
0100
0010
,
0001
1000
0100
0010
0000
1000
0100
0010
0001
1000
0100
0010
0000
0100
0010
0000
,
1001
0000
0000
1010
0000
0011
0000
0100
,
0010
0100
1001
0000
1001
0000
1001
1000
,
0100
1000
0010
1010
0000
0011
0000
0110
,
0010
0000
0100
0000
1001
0000
0000
0000
0001
0010
0100
0000
1000
0000
0100
0000
,
1000
0000
0101
0000
0000
0000
1000
0001
0000
0001
0000
0001
1000
0000
0100
0010
,
0000
0010
0000
0010
0100
0000
0100
1000
0000
1000
0000
1000
0100
0000
0100
0001
,
0000
0100
0000
0100
0001
0000
0001
0010
0000
0010
0000
0010
0100
0000
0100
1000
,
0000
1000
0000
1000
0001
0000
0001
1000
0000
1000
0000
1000
0100
0000
0100
0010
,
0000
0000
0000
0000
0010
0000
0000
0000
0000
0000
0000
0000
0010
0000
0000
0000
0100
0000
0000
0000
0000
0000
0000
0000
0100
0000
0000
0000
0011
0000
0011
0000
1000
0100
0010
0001
0000
0100
0010
0100
0010
0100
1000
0001
0101
0000
0101
0000
0100
0001
0100
1000
0000
0001
0100
1000
0100
0001
0010
0100
0110
0000
0000
0000
,
0110
0000
0100
0010
0100
0010
0000
1000
0001
0010
0100
1000
0010
0100
0011
0000
0011
0000
1000
0001
1000
0001
0000
0010
0100
1000
0100
0001
1000
0100
1010
0000
,
0000
1010
0000
1000
0001
1000
0001
0000
1000
0100
0010
0001
0010
0100
1000
0101
,
0000
0101
0000
0001
0100
0001
0100
0000
1000
0010
1000
0010
0100
0001
0100
1010
,
0000
1010
0000
0010
0100
0010
1000
0000
0001
0100
1000
0100
1000
0010
0100
0001
,
0000
0000
0110
0000
0000
0000
0110
0000
1000
0000
0001
0000
0100
0001
0100
0001
0100
0001
0100
0001
0100
0001
0101
0000
0101
0000
0101
0000
1000
0000
0000
0000
,
0100
1000
0100
1000
0100
1000
0100
1000
,
0100
0010
0100
0010
0100
0010
0100
0010
,
0100
0010
0001
0010
0001
0010
0001
0010
,
1000
0001
1000
0001
1000
0001
1000
0001
,
1000
0100
0010
0001
0010
0100
1000
0100
,
0010
0001
0010
0001
0010
0100
1000
0100
,
1000
0100
1000
0100
0010
0100
0010
0001
,
0010
1000
0001
1000
0001
1000
0001
1000
,
0100
1000
0001
1000
0100
1000
0001
1000
,
0010
1000
0001
1000
0100
1000
2002
0000
,
0000
3003
0000
0000
2002
0000
0000
0000
0000
0000
0000
0000
0000
0000
0000
0000
0000
0000
0000
0000
0000
0000
3003
0000
0000
0000
2002
0000
0000
0000
0000
0000
,
3003
0000
2002
0000
3003
0202
0000
0000
0303
2002
0000
0000
0000
0000
3003
2002
,
0000
0000
3003
0000
0202
0000
0000
0000
0303
0000
2200
0000
0000
0000
0000
3300
0000
0000
0202
0000
0000
0000
0000
0000
0000
0000
0303
0000
0000
0000
2002
0000
,
0000
0000
0000
3003
0000
0000
0000
0000
;

//---------------dance-single - ----------------
#NOTES:
     dance-single:
     :
     Medium:
     8:
     0.639,1.000,0.350,0.600,0.381,282.000,28.000,48.000,0.000,0.000:



0000
0000
0001
1000
0001
0100
0010
0100
,
0010
0000
0100
0000
0100
1000
0100
1000
,
0010
0000
0010
0010
0010
0001
0010
0001
,
0010
0000
0001
0000
0001
1000
0001
0100
,
0010
0000
0010
0100
1000
0100
0000
0010
,
0001
0010
0000
1000
0100
1000
0000
0010
,
0001
0010
0000
0100
0010
0100
0000
1000
,
0001
1000
0000
0100
0010
0100
0000
1000
,
0001
1000
0001
1000
0100
1000
0000
1000
,
0100
1000
0000
1000
0100
1000
0000
0100
,
0010
0100
0000
0010
0001
0010
0000
0100
,
0010
0100
0000
1000
0001
1000
0000
0100
,
1000
0100
1000
0100
0000
0101
0000
0010
,
0000
0110
0000
0100
0000
1100
0000
1000
,
0100
0010
0001
0010
0000
1100
0000
0001
,
0000
0101
0000
0010
0000
1010
0000
0001
,
1000
0001
0100
0010
0000
1001
0000
0001
,
0000
1100
0000
0100
0000
0110
0000
0010
,
0100
0010
0100
1000
0000
0011
0000
0010
,
0000
1100
0000
0010
0000
1010
0000
0100
,
0100
0000
0000
1100
0000
0110
0000
0011
,
0000
1100
0000
0110
0000
1100
0000
0101
,
0000
0011
0000
1010
0000
1100
0000
0110
,
0000
0101
0000
1100
0000
0101
0000
0110
,
0000
0101
0000
1000
0100
1000
0000
0010
,
0001
0010
0000
0100
0010
0100
0000
1000
,
0100
1000
0000
0010
0001
0010
0000
1000
,
0001
1000
0000
0100
0010
0100
0000
0001
,
0100
0000
0000
0000
0000
0000
0000
0000
0001
0000
0000
0000
0000
0000
0000
0000
0000
0000
0000
0000
0000
0000
0000
0000
0000
0000
0000
0000
1000
0000
0001
0000
1000
0000
0001
0000
1000
0000
0001
0000
1000
0001
1000
0001
0010
0000
0100
0000
0010
0000
0100
0000
0010
0000
0100
0000
0010
0100
0010
0100
0001
0000
0000
0000
,
0010
0000
0001
0000
0010
0000
0001
0000
0010
0000
0001
0010
0001
0010
1000
0000
0100
0000
1000
0000
0100
0000
1000
0000
0100
0000
1000
0100
1000
0100
0010
0000
,
0000
1000
0000
0001
0000
1000
0000
0100
0000
0010
0000
0001
0010
0100
1000
0100
,
0000
1000
0000
0100
0000
1000
0000
0010
0000
0100
0000
0001
0010
0001
0010
0100
,
0000
1000
0000
0001
0000
1000
0000
0100
0000
1000
0000
0010
0100
0010
0100
0001
,
0000
0001
0000
1000
0000
0100
0000
1000
0000
0001
0000
1000
0001
1000
0002
0000
,
0000
2003
0000
3002
0000
2003
0000
3002
,
0000
2003
0000
3002
0000
2003
0000
3200
,
0000
0320
0000
0230
0000
0320
0000
0230
,
0000
2300
0000
3200
0000
0320
0000
0032
,
0000
2003
0000
3002
0000
2003
0000
3002
,
0000
0023
0000
0230
0000
2300
0000
3002
,
0000
0203
0000
2300
0000
3200
0000
2300
,
0000
3020
0000
0230
0000
0320
0000
0032
,
0000
2003
0000
3200
0000
2300
0000
3020
,
0000
0230
0000
0302
0000
2003
3002
0000
,
0000
2003
0000
0000
0000
0020
0000
0000
,
0000
0030
0200
0000
0000
0000
0000
0000
0000
0300
0020
0000
0000
0000
0000
0000
,
0000
0030
0200
0000
0000
0000
0000
0000
0000
0300
0020
0000
0000
0000
0030
0020
,
3030
0000
0000
0000
;

//---------------dance-single - ----------------
#NOTES:
     dance-single:
     :
     Easy:
     5:
     0.289,0.528,0.050,0.075,0.275,152.000,4.000,6.000,0.000,0.000:

0000
0000
0010
0100
0010
0000
0010
0000
,
0010
0010
1000
1000
,
1000
0000
0001
1000
0001
0000
0001
0000
,
0001
0001
0010
0010
,
0100
0000
0100
1000
0000
0100
0000
1000
,
0000
0100
0000
0010
0000
0001
0000
0010
,
0000
0100
0000
1000
0000
0100
0000
1000
,
0000
0100
0000
1000
0000
0100
0000
0010
,
0000
0001
0000
0010
0000
0100
0000
1000
,
0000
0100
0000
0001
0000
0010
0000
0001
,
0000
0010
0000
0100
0000
0010
0000
0100
,
0000
1000
0000
0001
0000
1000
0000
0001
,
0000
0100
0000
0010
0000
0000
0000
0010
,
0000
0000
0000
0010
0000
0000
0000
1000
,
0000
1000
0000
1000
0000
0000
0000
0001
,
0000
0000
0000
0100
0000
0000
0000
0010
,
0000
0010
0000
0010
0000
0000
0000
0100
,
0000
0000
0000
0010
0000
0000
0000
1000
,
0000
1000
0000
1000
0000
0000
0000
0001
,
0000
0000
0000
0100
0000
0000
0000
0010
,
0000
0010
0000
0010
0000
0000
0000
1000
,
0000
0000
0000
0001
0000
0000
0000
1000
,
0000
1000
0000
1000
0000
0000
0000
0010
,
0000
0000
0000
0100
0000
0000
0000
0010
,
0000
0010
0000
0010
0000
0000
0000
0100
,
0000
0000
0000
0001
0000
0000
0000
0100
,
0000
0100
0000
0100
0000
0000
0000
1000
,
0000
0000
0000
0001
0000
0000
0000
0001
,
0000
0000
0001
0000
0000
0000
0000
0010
0010
0010
0010
0010
0010
0010
0010
0001
,
0000
0001
0000
0001
0000
0001
0000
0001
0000
0001
0000
0001
0000
0001
0000
1000
,
0000
1000
0000
0100
0000
0100
0000
0010
0000
0010
0000
0001
0000
0001
0000
1000
,
0000
1000
0000
0001
0000
0001
0000
1000
0000
1000
0000
0010
0000
0010
0000
0100
,
0000
0100
0000
0010
0000
0010
0000
1000
0000
1000
0000
0100
0000
0100
0000
0010
,
0000
0010
0000
0001
0000
0001
0000
1000
0000
1000
0000
0001
0000
0000
0010
0000
,
0000
0000
0000
0000
0000
0000
0000
0100
,
0000
0000
0000
0000
0000
0000
0000
1000
,
0000
0000
0000
0000
0000
0000
0000
0001
,
0000
0000
0000
0000
0000
0000
0000
1000
,
0000
0000
0000
0000
0000
0000
0000
0100
,
0000
0000
0000
0000
0000
0000
0000
0010
,
0000
0000
0000
0000
0000
0000
0000
1000
,
0000
0000
0000
0000
0000
0000
0000
0100
,
0000
0000
0000
0000
0000
0000
0000
1000
,
0000
0000
0000
2002
,
0000
0000
0000
0000
0000
0000
0000
0000
0000
0000
0000
0000
0000
3003
0000
0000
,
2002
0000
0000
0000
0000
0000
0000
3003
,
2002
0000
0000
0000
0000
0000
0000
0000
0000
0000
0000
0000
0000
0000
3003
1001
;
